Əcnəbi tələbələrimiz

10.10.2018

 

 

 

 

 

 

 

 

Əcnəbi tələbələrimiz

 

 

 

 

 

 

 

 

 

 

 

 

 


 

 

 

 

 

 

Video

 

General
Complete name                  : C:UsersAdminDesktopaaufotoetAVRASIYA UNIVER insta.mp4
Format                         : MPEG-4
Codec ID                       : M4V  (M4V /mp42/isom)
File size                      : 81.3 MiB
Duration                       : 59 s 626 ms
Overall bit rate mode          : Variable
Overall bit rate               : 11.4 Mb/s
Encoded date                   : UTC 2018-10-03 10:00:23
Tagged date                    : UTC 2018-10-03 10:00:25
©TIM                           : 00;00;00;00
©TSC                           : 30000
©TSZ                           : 1001
Video
ID                             : 1
Format                         : AVC
Format/Info                    : Advanced Video Codec
Format profile                 : Baseline@L3.1
Format settings, CABAC         : No
Format settings, ReFrames      : 2 frames
Codec ID                       : avc1
Codec ID/Info                  : Advanced Video Coding
Duration                       : 59 s 626 ms
Bit rate mode                  : Constant
Bit rate                       : 11.6 Mb/s
Width                          : 1 280 pixels
Height                         : 720 pixels
Display aspect ratio           : 16:9
Frame rate mode                : Constant
Frame rate                     : 29.970 (30000/1001) FPS
Standard                       : NTSC
Color space                    : YUV
Chroma subsampling             : 4:2:0
Bit depth                      : 8 bits
Scan type                      : Progressive
Bits/(Pixel*Frame)             : 0.419
Stream size                    : 80.0 MiB (99%)
Language                       : English
Encoded date                   : UTC 2018-10-03 10:00:23
Tagged date                    : UTC 2018-10-03 10:00:23
Color range                    : Limited
Audio
ID                             : 2
Format                         : AAC
Format/Info                    : Advanced Audio Codec
Format profile                 : LC
Codec ID                       : 40
Duration                       : 59 s 626 ms
Source duration                : 59 s 691 ms
Bit rate mode                  : Variable
Bit rate                       : 157 kb/s
Maximum bit rate               : 241 kb/s
Channel(s)                     : 2 channels
Channel positions              : Front: L R
Sampling rate                  : 48.0 kHz
Frame rate                     : 46.875 FPS (1024 spf)
Compression mode               : Lossy
Stream size                    : 1.12 MiB (1%)
Source stream size             : 1.12 MiB (1%)
Language                       : English
Encoded date                   : UTC 2018-10-03 10:00:23
Tagged date                    : UTC 2018-10-03 10:00:23
Vi